The Blessed Ones 2016 WEBRip x264 iNTENSO

seeders: 250
leechers: 408
updated:
Added ago by showstopper ***** in TV
Torrent Downloaded 5 times.
Info Hash: 02E130EBC20F9651D997172212148A86D79B0EEE

loading...

Torrent Files

The Blessed Ones 2016 WEBRip x264-iNTENSO (Size: 830.8 MB)
  The Blessed Ones 2016 WEBRip x264-iNTENSO 830.8 MB

Torrent Description



The.Blessed.Ones.2016.WEBRip.x264-iNTENSO



Complete name : The.Blessed.Ones.2016.WEBRip.x264-iNTENSO.mkv
Format : Matroska
Format version : Version 4 / Version 2
File size : 831 MiB
Duration : 1 h 19 min
Overall bit rate : 1 453 kb/s
Encoded date : UTC 2017-08-18 10:21:47
Writing application : mkvmerge v8.3.0 ('Over the Horizon') 64bit
Writing library : libebml v1.3.1 + libmatroska v1.4.2

Video
ID : 1
Format : AVC
Format/Info : Advanced Video Codec
Format profile : [email protected]
Format settings, CABAC : Yes
Format settings, ReFrames : 9 frames
Codec ID : V_MPEG4/ISO/AVC
Duration : 1 h 19 min
Bit rate : 1 262 kb/s
Width : 720 pixels
Height : 404 pixels
Display aspect ratio : 16:9
Frame rate mode : Constant
Frame rate : 23.976 (24000/1001) FPS
Color space : YUV
Chroma subsampling : 4:2:0
Bit depth : 8 bits
Scan type : Progressive
Bits/(Pixel*Frame) : 0.181
Stream size : 722 MiB (87%)
Writing library : x264 core 150 r2833 df79067
Encoding settings : cabac=1 / ref=9 / deblock=1:-3:-3 / analyse=0x3:0x113 / me=umh / subme=8 / psy=1 / psy_rd=1.00:0.15 / mixed_ref=1 / me_range=16 / chroma_me=1 / trellis=2 / 8x8dct=1 / cqm=0 / deadzone=21,11 / fast_pskip=0 / chroma_qp_offset=-3 / threads=12 / lookahead_threads=2 / sliced_threads=0 / nr=0 / decimate=1 / interlaced=0 / bluray_compat=0 / constrained_intra=0 / bframes=3 / b_pyramid=2 / b_adapt=2 / b_bias=0 / direct=3 / weightb=1 / open_gop=0 / weightp=2 / keyint=240 / keyint_min=23 / scenecut=40 / intra_refresh=0 / rc_lookahead=40 / rc=crf / mbtree=1 / crf=19.0 / qcomp=0.60 / qpmin=0 / qpmax=69 / qpstep=4 / ip_ratio=1.40 / aq=3:0.90
Language : English
Default : Yes
Forced : No
Color range : Limited
Matrix coefficients : BT.709

Audio
ID : 2
Format : AAC
Format/Info : Advanced Audio Codec
Format profile : LC
Codec ID : A_AAC
Duration : 1 h 19 min
Bit rate : 192 kb/s
Channel(s) : 2 channels
Channel positions : Front: L R
Sampling rate : 48.0 kHz
Frame rate : 46.875 FPS (1024 spf)
Compression mode : Lossy
Stream size : 108 MiB (13%)
Language : English
Default : Yes
Forced : No






Click To View Screenshot

Click To View Screenshot

Click To View Screenshot



Related Torrents

torrent name size age seed leech
713.3 MB 9 minutes 604 97
1.7 MB 9 minutes 47 351
1.5 GB 14 minutes 645 282
952.9 MB 14 minutes 184 150
428.9 MB 16 minutes 21 141

Sharing Widget


Download torrent
830.8 MB
seeders:1214
leechers:386
The Blessed Ones 2016 WEBRip x264-iNTENSO



To share this torrent use the code below and insert it into comments, status messages, forum posts or your signature.

Torrent: The Blessed Ones 2016 WEBRip x264-iNTENSO

Comments

Latest Searches