Mind Field S02E02 The Psychedelic Experience 720p RED WEBRip AAC mp4

seeders: 321
leechers: 116
updated:
Added ago by iAnon ***** in TV
Torrent Downloaded 10 times.
Info Hash: A9C0D95416D99FC686AE01237E2F4E50849860B2

loading...

Torrent Files

Mind Field S02E02 The Psychedelic Experience 720p RED WEBRip AAC mp4 (Size: 345.8 MB)
  Mind Field S02E02 The Psychedelic Experience 720p RED WEBRip AAC mp4 345.8 MB

Torrent Description



watch E1 for free
[youtube]1sl5KJ69qiA[/youtube]
https://www.youtube.com/watch?v=1sl5KJ69qiA

Do psychedelic drugs really bring about self-healing and personal enlightenment? New research says they may. In this episode, I travel to the Amazonian jungle of Peru to experience the mind-expanding effects of the psychedelic brew Ayahuasca. I’m joined by Imperial College London’s Head of Psychedelic Research, Dr. Robin Carhart-Harris, who measures the impact of Ayahuasca on my brain.

preview
[youtube]U3lWVLuc6CE[/youtube]
https://www.youtube.com/watch?v=U3lWVLuc6CE

Credits to original ripper

-RnC

General
Complete name               : Mind.Field.S02E02.The.Psychedelic.Experience.720p.RED.WEBRip.AAC.mp4
Format                      : MPEG-4
Format profile              : Base Media / Version 2
Codec ID                    : mp42 (isom/mp42)
File size                   : 346 MiB
Duration                    : 33 min 17 s
Overall bit rate mode       : Variable
Overall bit rate            : 1 452 kb/s
Encoded date                : UTC 2017-11-25 23:07:14
Tagged date                 : UTC 2017-11-25 23:07:14


Video
ID                          : 1
Format                      : AVC
Format/Info                 : Advanced Video Codec
Format profile              : [email protected]
Format settings             : CABAC / 3 Ref Frames
Format settings, CABAC      : Yes
Format settings, ReFrames   : 3 frames
Codec ID                    : avc1
Codec ID/Info               : Advanced Video Coding
Duration                    : 33 min 17 s
Bit rate                    : 1 323 kb/s
Width                       : 1 280 pixels
Height                      : 720 pixels
Display aspect ratio        : 16:9
Frame rate mode             : Variable
Frame rate                  : 23.976 (24000/1001) FPS
Minimum frame rate          : 23.974 FPS
Maximum frame rate          : 23.981 FPS
Color space                 : YUV
Chroma subsampling          : 4:2:0
Bit depth                   : 8 bits
Scan type                   : Progressive
Bits/(Pixel*Frame)          : 0.060
Stream size                 : 315 MiB (91%)
Title                       : ISO Media file produced by Google Inc. Created on: 11/25/2017.
Encoded date                : UTC 2017-11-25 23:07:14
Tagged date                 : UTC 2017-11-25 23:07:14
Color range                 : Limited
Color primaries             : BT.2020
Transfer characteristics    : BT.709
Matrix coefficients         : BT.2020 non-constant

Audio
ID                          : 2
Format                      : AAC
Format/Info                 : Advanced Audio Codec
Format profile              : LC
Codec ID                    : mp4a-40-2
Duration                    : 33 min 17 s
Bit rate mode               : Variable
Bit rate                    : 126 kb/s
Channel(s)                  : 2 channels
Channel positions           : Front: L R
Sampling rate               : 44.1 kHz
Frame rate                  : 43.066 FPS (1024 SPF)
Compression mode            : Lossy
Stream size                 : 29.9 MiB (9%)
Title                       : ISO Media file produced by Google Inc. Created on: 11/25/2017.
Encoded date                : UTC 2017-11-25 23:07:14
Tagged date                 : UTC 2017-11-25 23:07:14



Related Torrents

torrent name size age seed leech
746.5 MB 53 seconds 111 255
1.2 GB 53 seconds 213 185
712.7 MB 53 seconds 31 188
22.9 GB 12 minutes 285 272
158.3 MB 14 minutes 708 212

Sharing Widget


Download torrent
345.8 MB
seeders:1214
leechers:386
Mind Field S02E02 The Psychedelic Experience 720p RED WEBRip AAC mp4



To share this torrent use the code below and insert it into comments, status messages, forum posts or your signature.

Torrent: Mind Field S02E02 The Psychedelic Experience 720p RED WEBRip AAC mp4

Comments

Latest Searches