Khaidi No 150 (2017) Hindi 720p UnCut HDRip x264 AC3 ExtraMovies

seeders: 328
leechers: 90
updated:
Added ago by ExtraMovies ***** in Movies
Torrent Downloaded 10 times.
Info Hash: D2B3B560E42EE04A7800B7B2DECD0ED981B37020

loading...

Torrent Files

Khaidi No 150 (2017) Hindi 720p UnCut HDRip x264 AC3 - ExtraMovies (Size: 1.1 GB)
  Khaidi No 150 (2017) Hindi 720p UnCut HDRip x264 AC3 - ExtraMovies 1.1 GB

Torrent Description




Movie Info

General
Unique ID : 246833836810805965825144936175095260152 (0xB9B277BF21C88CC4A518EC59E70C23F8)
Complete name : Khaidi No. 150 (2017) Hindi 720p UnCut HDRip x264 AC3 - ExtraMovies
Format : Matroska
Format version : Version 4 / Version 2
File size : 1.10 GiB
Duration : 2 h 19 min
Overall bit rate : 1 129 kb/s
Movie name : ExtraMovies.cc - Khaidi No. 150 (2017) 720p HDRip Hindi Dubbed x264 AC3
Encoded date : UTC 2017-12-07 16:01:25
Writing application : mkvmerge v18.0.0 ('Apricity') 64-bit
Writing library : libebml v1.3.5 + libmatroska v1.4.8

Video
ID : 1
Format : AVC
Format/Info : Advanced Video Codec
Format profile : [email protected]
Format settings : CABAC / 8 Ref Frames
Format settings, CABAC : Yes
Format settings, RefFrames : 8 frames
Codec ID : V_MPEG4/ISO/AVC
Duration : 2 h 19 min
Bit rate : 999 kb/s
Width : 1 280 pixels
Height : 544 pixels
Display aspect ratio : 2.35:1
Frame rate mode : Constant
Frame rate : 23.976 (24000/1001) FPS
Color space : YUV
Chroma subsampling : 4:2:0
Bit depth : 8 bits
Scan type : Progressive
Bits/(Pixel*Frame) : 0.060
Stream size : 998 MiB (89%)
Title : ExtraMovies.cc
Writing library : x264 core 142 r2479 dd79a61
Encoding settings : cabac=1 / ref=8 / deblock=1:0:0 / analyse=0x3:0x113 / me=umh / subme=9 / psy=1 / psy_rd=1.00:0.00 / mixed_ref=1 / me_range=16 / chroma_me=1 / trellis=2 / 8x8dct=1 / cqm=0 / deadzone=21,11 / fast_pskip=1 / chroma_qp_offset=-2 / threads=12 / lookahead_threads=1 / sliced_threads=0 / nr=0 / decimate=1 / interlaced=0 / bluray_compat=0 / constrained_intra=0 / bframes=3 / b_pyramid=2 / b_adapt=2 / b_bias=0 / direct=3 / weightb=1 / open_gop=0 / weightp=2 / keyint=240 / keyint_min=24 / scenecut=40 / intra_refresh=0 / rc_lookahead=40 / rc=2pass / mbtree=1 / bitrate=999 / ratetol=1.0 / qcomp=0.60 / qpmin=0 / qpmax=69 / qpstep=4 / cplxblur=20.0 / qblur=0.5 / vbv_maxrate=62500 / vbv_bufsize=78125 / nal_hrd=none / filler=0 / ip_ratio=1.40 / aq=1:1.00
Default : Yes
Forced : No
Color range : Limited
Color primaries : BT.709
Transfer characteristics : BT.709
Matrix coefficients : BT.709

Audio
ID : 2
Format : AC-3
Format/Info : Audio Coding 3
Format settings, Endianness : Big
Codec ID : A_AC3
Duration : 2 h 19 min
Bit rate mode : Constant
Bit rate : 128 kb/s
Channel(s) : 2 channels
Channel positions : Front: L R
Sampling rate : 48.0 kHz
Frame rate : 31.250 FPS (1536 SPF)
Bit depth : 16 bits
Compression mode : Lossy
Delay relative to video : -140 ms
Stream size : 128 MiB (11%)
Title : ExtraMovies.cc
Language : Hindi
Service kind : Complete Main
Default : Yes
Forced : No













Related Torrents

torrent name size age seed leech
923.8 MB 12 minutes 757 476
705.3 MB 22 minutes 712 169
874.5 MB 27 minutes 56 308
711.4 MB 42 minutes 507 28
634.6 MB 42 minutes 644 178

Sharing Widget


Download torrent
1.1 GB
seeders:1214
leechers:386
Khaidi No 150 (2017) Hindi 720p UnCut HDRip x264 AC3 - ExtraMovies



To share this torrent use the code below and insert it into comments, status messages, forum posts or your signature.

Torrent: Khaidi No 150 (2017) Hindi 720p UnCut HDRip x264 AC3 - ExtraMovies

Comments

Latest Searches