Empire S04E08 Cupid Painted Blind 1080p DD5 1 2 0 x264 Phun Psyz

seeders: 726
leechers: 342
updated:
Added ago by PhunPsyz ***** in TV
Torrent Downloaded 10 times.
Info Hash: 85C78975FEF9F98B70BA3944B5EB9469FE526C53

loading...

Torrent Files

Empire S04E08 Cupid Painted Blind 1080p DD5 1 - 2 0 x264 Phun Psyz (Size: 584.8 MB)
  Empire S04E08 Cupid Painted Blind 1080p DD5 1 - 2 0 x264 Phun Psyz 584.8 MB

Torrent Description



http://www.imdb.com/title/tt6742032/?ref_=ttep_ep8

Cookie and Lucious take action when Diana Dubois' plan comes to fruition.

Source: AJP69 (Amzn) (3.01 GiB)





Format : MPEG-4
Format profile : Base Media / Version 2
Codec ID : mp42 (isom/iso2/avc1/mp41)
File size : 585 MiB
Duration : 43 min 50 s
Overall bit rate mode : Variable
Overall bit rate : 1 865 kb/s
Writing application : HandBrake 1.0.7 2017040900

Video
ID : 1
Format : AVC
Format/Info : Advanced Video Codec
Format profile : [email protected]
Format settings : CABAC / 8 Ref Frames
Format settings, CABAC : Yes
Format settings, RefFrames : 8 frames
Codec ID : avc1
Codec ID/Info : Advanced Video Coding
Duration : 43 min 50 s
Bit rate : 1 378 kb/s
Width : 1 920 pixels
Height : 1 080 pixels
Display aspect ratio : 16:9
Frame rate mode : Variable
Frame rate : 23.976 (24000/1001) FPS
Minimum frame rate : 23.974 FPS
Maximum frame rate : 23.981 FPS
Color space : YUV
Chroma subsampling : 4:2:0
Bit depth : 8 bits
Scan type : Progressive
Bits/(Pixel*Frame) : 0.028
Stream size : 432 MiB (74%)
Writing library : x264 core 148 r2708 86b7198
Color range : Limited
Color primaries : BT.709
Transfer characteristics : BT.709
Matrix coefficients : BT.709

Audio #1
ID : 2
Format : AC-3
Format/Info : Audio Coding 3
Format settings, Endianness : Big
Codec ID : ac-3
Duration : 43 min 49 s
Bit rate mode : Constant
Bit rate : 320 kb/s
Channel(s) : 6 channels
Channel positions : Front: L C R, Side: L R, LFE
Sampling rate : 48.0 kHz
Frame rate : 31.250 FPS (1536 SPF)
Bit depth : 16 bits
Compression mode : Lossy
Stream size : 100 MiB (17%)
Title : Surround / Surround
Language : English
Service kind : Complete Main
Default : Yes
Alternate group : 1
Fallback To : 3

Audio #2
ID : 3
Format : AAC
Format/Info : Advanced Audio Codec
Format profile : LC
Codec ID : mp4a-40-2
Duration : 43 min 49 s
Bit rate mode : Variable
Bit rate : 160 kb/s
Channel(s) : 2 channels
Channel positions : Front: L R
Sampling rate : 48.0 kHz
Frame rate : 46.875 FPS (1024 SPF)
Compression mode : Lossy
Stream size : 50.2 MiB (9%)
Title : Stereo / Stereo
Language : English
Default : Inherited From: 2
Alternate group : 1
Fallback From : 2

Text
ID : 4
Format : Timed Text
Muxing mode : sbtl
Codec ID : tx3g
Duration : 43 min 9 s
Bit rate mode : Variable
Bit rate : 103 b/s
Stream size : 32.5 KiB (0%)
Language : English
Default : Yes
Forced : No
Alternate group : 3



Related Torrents

torrent name size age seed leech
1.5 GB 4 minutes 792 132
4 minutes 661 178
190.3 MB 5 minutes 660 337
2.7 MB 5 minutes 174 377
81.0 MB 5 minutes 769 84

Sharing Widget


Download torrent
584.8 MB
seeders:1214
leechers:386
Empire S04E08 Cupid Painted Blind 1080p DD5 1 - 2 0 x264 Phun Psyz



To share this torrent use the code below and insert it into comments, status messages, forum posts or your signature.

Torrent: Empire S04E08 Cupid Painted Blind 1080p DD5 1 - 2 0 x264 Phun Psyz

Comments

Latest Searches