Camila Cabello Havana (feat Young Thug) [iTunes Purchased] [Music Video] sαηεεү50

seeders: 778
leechers: 118
updated:
Added ago by saneey50 ***** in Music
Torrent Downloaded 10 times.
Info Hash: 54F61112486323F8F081BFCCDCD34E7DA2CC8D93

loading...

Torrent Files

Camila Cabello - Havana (feat Young Thug) [iTunes Purchased] [Music Video] sαηεεү50 (Size: 85.2 MB)
  Camila Cabello - Havana (feat Young Thug) [iTunes Purchased] [Music Video] sαηεεү50 85.2 MB

Torrent Description





Track : Havana (feat. Young Thug)

Artist : Camila Cabello

Album : Havana (feat. Young Thug) - Single

Genre : Pop

Year : 25 Oct 2017

Composer : Camila Cabello

Featuring : Young Thug

Copyright : ℗ (C) 2017 Simco Ltd. under exclusive license to Epic Records, a division of Sony Music Entertainment






Camila Cabello




General
Complete name                            : C:\Users\abc\Music\iTunes\iTunes Media\Downloads\Havana (feat. Young Thug).m4v
Format                                   : MPEG-4
Codec ID                                 : M4V  (M4V /mp42/isom)
File size                                : 85.7 MiB
Duration                                 : 6 min 42 s
Overall bit rate mode                    : Variable
Overall bit rate                         : 1 785 kb/s
Movie name                               : Havana (feat. Young Thug)
Performer                                : Camila Cabello
Genre                                    : Pop
ContentType                              : Music Video
Recorded date                            : UTC 2017-10-25 07:00:00
Encoded date                             : UTC 2017-10-23 01:23:10
Tagged date                              : UTC 2017-10-23 01:23:16
Copyright                                : ℗ (C) 2017 Simco Ltd. under exclusive license to Epic Records, a division of Sony Music Entertainment
Cover                                    : Yes
Rating                                   : None
AppleStoreCatalogID                      : 1299575340
AppleStoreAccount                        : [email protected]
ownr                                     : Saneey iTunes
PurchaseDate                             : 2017-10-25 22:03:56
ContentRating                            : ||0|
AlbumTitleID                             : 935727853
GenreID                                  : 1614
AppleStoreCountry                        : Russia
Flavour                                  : 8:480p

Video
ID                                       : 1
Format                                   : AVC
Format/Info                              : Advanced Video Codec
Format profile                           : [email protected]
Format settings                          : 2 Ref Frames
Format settings, CABAC                   : No
Format settings, RefFrames               : 2 frames
Codec ID                                 : avc1
Codec ID/Info                            : Advanced Video Coding
Duration                                 : 6 min 42 s
Bit rate                                 : 1 531 kb/s
Width                                    : 720 pixels
Height                                   : 480 pixels
Display aspect ratio                     : 16:9
Original display aspect ratio            : 16:9
Frame rate mode                          : Constant
Frame rate                               : 23.976 (24000/1001) FPS
Color space                              : YUV
Chroma subsampling                       : 4:2:0
Bit depth                                : 8 bits
Scan type                                : Progressive
Bits/(Pixel*Frame)                       : 0.185
Stream size                              : 73.5 MiB (86%)
Title                                    : Core Media Video
Language                                 : English
Encoded date                             : UTC 2017-10-23 01:23:10
Tagged date                              : UTC 2017-10-23 01:23:16
Color range                              : Limited
Color primaries                          : BT.709
Transfer characteristics                 : BT.709
Matrix coefficients                      : BT.709

Audio
ID                                       : 2
Format                                   : AAC
Format/Info                              : Advanced Audio Codec
Format profile                           : LC
Codec ID                                 : mp4a-40-2
Duration                                 : 6 min 42 s
Source duration                          : 6 min 42 s
Bit rate mode                            : Variable
Bit rate                                 : 256 kb/s
Maximum bit rate                         : 407 kb/s
Channel(s)                               : 2 channels
Channel positions                        : Front: L R
Sampling rate                            : 48.0 kHz
Frame rate                               : 46.875 FPS (1024 SPF)
Compression mode                         : Lossy
Stream size                              : 11.9 MiB (14%)
Source stream size                       : 11.9 MiB (14%)
Title                                    : Core Media Audio
Language                                 : English
Encoded date                             : UTC 2017-10-23 01:23:10
Tagged date                              : UTC 2017-10-23 01:23:16



Proof of Purchased






#sαηεεү50 .



Related Torrents

torrent name size age seed leech
22.7 MB 35 seconds 660 150
890.0 MB 1 minute 465 473
327.4 MB 2 minutes 322 322
367.2 MB 2 minutes 206 466
548.6 MB 2 minutes 286 492

Sharing Widget


Download torrent
85.2 MB
seeders:1214
leechers:386
Camila Cabello - Havana (feat Young Thug) [iTunes Purchased] [Music Video] sαηεεү50



To share this torrent use the code below and insert it into comments, status messages, forum posts or your signature.

Torrent: Camila Cabello - Havana (feat Young Thug) [iTunes Purchased] [Music Video] sαηεεү50

Comments

Latest Searches